Blu-ray ForumFilmstudio / Label - Support & HilfePolyband

[Polyband] TV-Serien bei polyband

Gestartet: 01 Sep 2014 16:58 - 37 Antworten

Antworten
  • 1
  • 2
  • 3
  • 4

polyband

26 Beiträge

Avatar polyband

Geschrieben: 01 Sep 2014 16:58

Neue spannende, dramatische, humorvolle und actiongeladene Serien, die wir auf DVD und Blu-ray veröffentlichen, stellen wir euch hier gerne ab und zu vor und bemühen uns, Fragen regelmäßig und schnell zu beantworten Lächeln
Letzte Woche ist die Crime-Noir-Serie „Der Pathologe – Mörderisches Dublin“ bei polyband erschienen, die aktuell auch am Sonntagabend in der ARD zu sehen ist. Als Vorlage dienten die Krimi-Roman-Bestseller des irischen Autors John Banville alias Benjamin Black. In der Hauptrolle ist Gabriel Byrne („Die üblichen Verdächtigen“) als Pathologe zu sehen, der durch Zufall zum Ermittler wird, als eine Leiche aus seiner Pathologie verschwindet.

Den Trailer gibt’s hier:
https://www.youtube.com/watch?v=WA2THoDXXl4

McCrutchy

6 Beiträge

Avatar McCrutchy

Geschrieben: 13 Sep 2014 10:40

Hi guys, I got this today. I watched the first episode, it looks and sounds great!

Sprachen: Deutsch: DTS-HD Master Audio 5.1 (48kHz, 16-bit)
Englisch: DTS-HD Master Audio 5.1 (48kHz, 16-bit)

Untertitel: Deutsch, Englisch für Hörgeschädigte

N.B.: Series title and episode titles are in German.

Region: A, B, C
Disc Kapazität: 1xBD-50, 1xBD-25
Bildformat: 1920x1080i (1.78: 1) @ 50 Hz
Video-Codec: MPEG-4/AVC
Spieldauer: 268 Minuten

Features: Trailershow, i.e. kein Bonusmaterial Blinzeln

Thanks for this release, Polyband! Lächeln Sorry for my English comments, and I hope I'm posting this in the right sub-forum...

BDinfo scans:

Disc 1

Folge 1: "Nicht frei von Sünde" ("Christine Falls"Blinzeln

Code:

Total Video
Title Codec Length Movie Size Disc Size Bitrate Bitrate Main Audio Track Secondary Audio Track
----- ------ ------- -------------- -------------- ------- ------- ------------------ ---------------------
00031.MPLS AVC 1:28:09 22,104,901,632 44,876,900,621 33.43 27.94 DTS-HD Master 5.1 1715Kbps (48kHz/16-bit)

Code:


DISC INFO:

Disc Title: DER PATHOLOGE
Disc Size: 44,876,900,621 bytes
Protection: AACS
BD-Java: Yes
Extras: 50Hz Content
BDInfo: 0.5.8

PLAYLIST REPORT:

Name: 00031.MPLS
Length: 1:28:09.639 (h:m:s.ms)
Size: 22,104,901,632 bytes
Total Bitrate: 33.43 Mbps

VIDEO:

Codec Bitrate Description
----- ------- -----------
MPEG-4 AVC Video 27938 kbps 1080i / 25 fps / 16:9 / High Profile 4.1

AUDIO:

Codec Language Bitrate Description
----- -------- ------- -----------
DTS-HD Master Audio German 1715 kbps 5.1 / 48 kHz / 1715 kbps / 16-bit (DTS Core: 5.1 / 48 kHz / 1509 kbps / 16-bit)
DTS-HD Master Audio English 1762 kbps 5.1 / 48 kHz / 1762 kbps / 16-bit (DTS Core: 5.1 / 48 kHz / 1509 kbps / 16-bit)

SUBTITLES:

Codec Language Bitrate Description
----- -------- ------- -----------
Presentation Graphics German 42.003 kbps
Presentation Graphics English 41.473 kbps

FILES:

Name Time In Length Size Total Bitrate
---- ------- ------ ---- -------------
00031.M2TS 0:00:00.000 1:28:09.639 22,104,901,632 33,431

CHAPTERS:

Number Time In Length Avg Video Rate Max 1-Sec Rate Max 1-Sec Time Max 5-Sec Rate Max 5-Sec Time Max 10Sec Rate Max 10Sec Time Avg Frame Size Max Frame Size Max Frame Time
------ ------- ------ -------------- -------------- -------------- -------------- -------------- -------------- -------------- -------------- -------------- --------------
1 0:00:00.000 0:09:05.360 27,552 kbps 44,542 kbps 00:00:17.400 37,062 kbps 00:00:08.279 35,641 kbps 00:08:54.159 137,750 bytes 521,099 bytes 00:09:04.919
2 0:09:05.360 0:08:01.080 27,002 kbps 42,216 kbps 00:10:06.760 35,552 kbps 00:11:12.160 34,572 kbps 00:11:07.279 135,009 bytes 678,722 bytes 00:17:05.599
3 0:17:06.440 0:07:19.879 29,875 kbps 43,355 kbps 00:19:11.639 37,848 kbps 00:17:06.519 35,895 kbps 00:18:51.400 149,377 bytes 516,201 bytes 00:17:58.559
4 0:24:26.319 0:07:11.639 28,528 kbps 40,886 kbps 00:29:42.800 35,948 kbps 00:26:27.680 35,091 kbps 00:28:15.120 142,640 bytes 610,012 bytes 00:31:14.120
5 0:31:37.959 0:08:15.840 28,281 kbps 42,789 kbps 00:32:05.800 36,689 kbps 00:33:45.639 36,049 kbps 00:33:12.279 141,407 bytes 556,769 bytes 00:33:10.000
6 0:39:53.800 0:07:34.479 27,316 kbps 40,060 kbps 00:46:28.720 37,230 kbps 00:42:36.319 34,938 kbps 00:42:36.360 136,582 bytes 525,562 bytes 00:42:57.279
7 0:47:28.279 0:08:15.680 29,911 kbps 44,917 kbps 00:48:01.040 38,950 kbps 00:48:01.040 37,114 kbps 00:47:28.279 149,553 bytes 530,024 bytes 00:49:22.040
8 0:55:43.959 0:07:35.919 29,062 kbps 44,105 kbps 01:00:18.720 37,022 kbps 01:00:15.440 35,704 kbps 01:00:10.360 145,311 bytes 693,912 bytes 00:59:03.360
9 1:03:19.879 0:07:44.720 27,133 kbps 40,765 kbps 01:09:32.160 35,985 kbps 01:04:21.680 32,951 kbps 01:05:25.479 135,665 bytes 623,074 bytes 01:04:26.959
10 1:11:04.599 0:06:58.680 26,137 kbps 39,710 kbps 01:16:03.199 37,104 kbps 01:13:19.919 35,112 kbps 01:13:31.879 130,686 bytes 509,619 bytes 01:13:26.000
11 1:18:03.279 0:06:58.440 27,746 kbps 40,068 kbps 01:24:35.559 36,155 kbps 01:20:37.599 34,633 kbps 01:20:37.960 138,729 bytes 614,678 bytes 01:21:37.000
12 1:25:01.720 0:03:07.919 24,650 kbps 48,007 kbps 01:28:03.919 37,760 kbps 01:27:02.639 36,434 kbps 01:27:18.479 123,303 bytes 851,130 bytes 01:28:07.639

STREAM DIAGNOSTICS:

File PID Type Codec Language Seconds Bitrate Bytes Packets
---- --- ---- ----- -------- -------------- -------------- ------------- -----
00031.M2TS 4113 (0x1011) 0x1B AVC 5289.440 27,939 18,472,461,769 100,470,868
00031.M2TS 4352 (0x1100) 0x86 DTS-HD MA deu (German) 5289.440 1,715 1,134,091,984 7,026,734
00031.M2TS 4353 (0x1101) 0x86 DTS-HD MA eng (English) 5289.440 1,762 1,164,748,292 7,140,911
00031.M2TS 4608 (0x1200) 0x90 PGS deu (German) 5289.440 42 27,772,752 156,793
00031.M2TS 4609 (0x1201) 0x90 PGS eng (English) 5289.440 41 27,422,310 157,191


Folge 2: "Der silberne Schwan" ("The Silver Swan"Blinzeln

Code:

Total Video
Title Codec Length Movie Size Disc Size Bitrate Bitrate Main Audio Track Secondary Audio Track
----- ------ ------- -------------- -------------- ------- ------- ------------------ ---------------------
00032.MPLS AVC 1:29:14 22,466,310,144 44,876,900,621 33.57 28.00 DTS-HD Master 5.1 1720Kbps (48kHz/16-bit)

Code:


DISC INFO:

Disc Title: DER PATHOLOGE
Disc Size: 44,876,900,621 bytes
Protection: AACS
BD-Java: Yes
Extras: 50Hz Content
BDInfo: 0.5.8

PLAYLIST REPORT:

Name: 00032.MPLS
Length: 1:29:14.120 (h:m:s.ms)
Size: 22,466,310,144 bytes
Total Bitrate: 33.57 Mbps

VIDEO:

Codec Bitrate Description
----- ------- -----------
MPEG-4 AVC Video 27996 kbps 1080i / 25 fps / 16:9 / High Profile 4.1

AUDIO:

Codec Language Bitrate Description
----- -------- ------- -----------
DTS-HD Master Audio German 1720 kbps 5.1 / 48 kHz / 1720 kbps / 16-bit (DTS Core: 5.1 / 48 kHz / 1509 kbps / 16-bit)
DTS-HD Master Audio English 1847 kbps 5.1 / 48 kHz / 1847 kbps / 16-bit (DTS Core: 5.1 / 48 kHz / 1509 kbps / 16-bit)

SUBTITLES:

Codec Language Bitrate Description
----- -------- ------- -----------
Presentation Graphics German 40.722 kbps
Presentation Graphics English 40.299 kbps

FILES:

Name Time In Length Size Total Bitrate
---- ------- ------ ---- -------------
00032.M2TS 0:00:00.000 1:29:14.120 22,466,310,144 33,569

CHAPTERS:

Number Time In Length Avg Video Rate Max 1-Sec Rate Max 1-Sec Time Max 5-Sec Rate Max 5-Sec Time Max 10Sec Rate Max 10Sec Time Avg Frame Size Max Frame Size Max Frame Time
------ ------- ------ -------------- -------------- -------------- -------------- -------------- -------------- -------------- -------------- -------------- --------------
1 0:00:00.000 0:07:25.120 27,645 kbps 48,277 kbps 00:01:55.120 39,430 kbps 00:02:17.120 38,431 kbps 00:02:16.040 138,213 bytes 521,448 bytes 00:06:40.639
2 0:07:25.120 0:07:40.639 25,966 kbps 42,750 kbps 00:14:35.879 37,822 kbps 00:14:57.559 37,059 kbps 00:14:52.400 129,830 bytes 649,264 bytes 00:07:27.839
3 0:15:05.760 0:08:01.079 28,634 kbps 42,174 kbps 00:16:02.080 36,940 kbps 00:16:00.160 35,932 kbps 00:16:44.919 143,168 bytes 509,345 bytes 00:18:58.000
4 0:23:06.839 0:06:28.640 28,420 kbps 40,208 kbps 00:24:24.680 35,604 kbps 00:24:22.199 33,305 kbps 00:24:21.799 142,101 bytes 492,951 bytes 00:28:54.760
5 0:29:35.480 0:08:11.199 29,805 kbps 44,441 kbps 00:37:38.879 40,637 kbps 00:37:38.199 37,708 kbps 00:37:36.640 149,025 bytes 500,014 bytes 00:30:37.279
6 0:37:46.680 0:08:14.279 28,488 kbps 44,731 kbps 00:40:14.879 38,339 kbps 00:41:15.839 37,039 kbps 00:41:10.760 142,439 bytes 517,034 bytes 00:39:33.440
7 0:46:00.959 0:06:49.840 27,751 kbps 41,762 kbps 00:48:08.919 38,121 kbps 00:48:08.919 36,286 kbps 00:48:25.960 138,755 bytes 497,692 bytes 00:46:51.959
8 0:52:50.800 0:09:12.680 27,356 kbps 43,270 kbps 00:59:47.160 38,989 kbps 00:58:59.919 37,373 kbps 00:58:59.720 136,778 bytes 517,781 bytes 00:59:24.120
9 1:02:03.480 0:07:32.199 30,634 kbps 44,952 kbps 01:02:58.120 39,680 kbps 01:05:33.879 38,257 kbps 01:03:12.479 153,172 bytes 519,450 bytes 01:09:24.040
10 1:09:35.680 0:06:38.639 26,356 kbps 39,810 kbps 01:12:33.680 35,965 kbps 01:15:17.160 34,796 kbps 01:12:24.680 131,781 bytes 705,784 bytes 01:16:09.680
11 1:16:14.320 0:07:16.800 27,373 kbps 46,455 kbps 01:20:38.400 37,969 kbps 01:20:36.680 35,616 kbps 01:20:38.400 136,864 bytes 716,763 bytes 01:17:23.839
12 1:23:31.120 0:05:43.000 27,043 kbps 44,533 kbps 01:29:10.120 36,754 kbps 01:25:20.400 35,578 kbps 01:25:15.400 135,245 bytes 827,026 bytes 01:29:11.839

STREAM DIAGNOSTICS:

File PID Type Codec Language Seconds Bitrate Bytes Packets
---- --- ---- ----- -------- -------------- -------------- ------------- -----
00032.M2TS 4113 (0x1011) 0x1B AVC 5353.920 27,997 18,736,473,530 101,906,821
00032.M2TS 4352 (0x1100) 0x86 DTS-HD MA deu (German) 5353.920 1,720 1,150,868,460 7,068,128
00032.M2TS 4353 (0x1101) 0x86 DTS-HD MA eng (English) 5353.920 1,847 1,236,047,948 7,548,613
00032.M2TS 4608 (0x1200) 0x90 PGS deu (German) 5353.920 41 27,254,097 153,978
00032.M2TS 4609 (0x1201) 0x90 PGS eng (English) 5353.920 40 26,970,870 155,106


Disc 2

Folge 3: "Eine Frau verschwindet" ("Elegy for April"Blinzeln

Code:

Total Video
Title Codec Length Movie Size Disc Size Bitrate Bitrate Main Audio Track Secondary Audio Track
----- ------ ------- -------------- -------------- ------- ------- ------------------ ---------------------
00001.MPLS AVC 1:29:10 22,502,836,224 24,621,188,990 33.64 27.96 DTS-HD Master 5.1 1818Kbps (48kHz/16-bit)

Code:


DISC INFO:

Disc Title: DER PATHOLOGE
Disc Size: 24,621,188,990 bytes
Protection: AACS
BD-Java: Yes
Extras: 50Hz Content
BDInfo: 0.5.8

PLAYLIST REPORT:

Name: 00001.MPLS
Length: 1:29:10.959 (h:m:s.ms)
Size: 22,502,836,224 bytes
Total Bitrate: 33.64 Mbps

VIDEO:

Codec Bitrate Description
----- ------- -----------
MPEG-4 AVC Video 27963 kbps 1080i / 25 fps / 16:9 / High Profile 4.1

AUDIO:

Codec Language Bitrate Description
----- -------- ------- -----------
DTS-HD Master Audio German 1818 kbps 5.1 / 48 kHz / 1818 kbps / 16-bit (DTS Core: 5.1 / 48 kHz / 1509 kbps / 16-bit)
DTS-HD Master Audio English 1844 kbps 5.1 / 48 kHz / 1844 kbps / 16-bit (DTS Core: 5.1 / 48 kHz / 1509 kbps / 16-bit)

SUBTITLES:

Codec Language Bitrate Description
----- -------- ------- -----------
Presentation Graphics German 42.510 kbps
Presentation Graphics English 42.894 kbps

FILES:

Name Time In Length Size Total Bitrate
---- ------- ------ ---- -------------
00001.M2TS 0:00:00.000 1:29:10.959 22,502,836,224 33,643

CHAPTERS:

Number Time In Length Avg Video Rate Max 1-Sec Rate Max 1-Sec Time Max 5-Sec Rate Max 5-Sec Time Max 10Sec Rate Max 10Sec Time Avg Frame Size Max Frame Size Max Frame Time
------ ------- ------ -------------- -------------- -------------- -------------- -------------- -------------- -------------- -------------- -------------- --------------
1 0:00:00.000 0:07:21.879 27,196 kbps 44,520 kbps 00:00:29.199 38,515 kbps 00:00:27.160 35,994 kbps 00:00:23.000 135,967 bytes 577,318 bytes 00:04:32.199
2 0:07:21.879 0:07:25.840 28,023 kbps 45,885 kbps 00:09:37.599 37,818 kbps 00:09:37.480 36,073 kbps 00:09:37.640 140,117 bytes 608,590 bytes 00:09:24.319
3 0:14:47.720 0:08:31.479 27,716 kbps 42,821 kbps 00:22:53.919 37,763 kbps 00:22:53.919 36,018 kbps 00:23:08.599 138,579 bytes 626,176 bytes 00:22:54.000
4 0:23:19.199 0:07:54.680 29,428 kbps 41,422 kbps 00:23:32.480 37,517 kbps 00:26:23.639 35,803 kbps 00:26:18.599 147,142 bytes 651,851 bytes 00:26:30.599
5 0:31:13.879 0:08:09.760 28,951 kbps 46,689 kbps 00:32:25.639 37,712 kbps 00:32:55.639 35,551 kbps 00:32:24.320 144,754 bytes 585,338 bytes 00:32:31.440
6 0:39:23.639 0:07:07.239 27,579 kbps 40,651 kbps 00:40:32.599 36,919 kbps 00:40:30.680 35,770 kbps 00:40:25.799 137,894 bytes 661,756 bytes 00:40:37.879
7 0:46:30.879 0:07:30.040 27,476 kbps 46,446 kbps 00:51:12.599 38,763 kbps 00:51:12.160 36,480 kbps 00:51:09.720 137,378 bytes 624,213 bytes 00:53:18.080
8 0:54:00.919 0:07:34.800 27,210 kbps 41,768 kbps 01:00:36.680 37,660 kbps 00:59:52.480 35,326 kbps 01:00:40.720 136,049 bytes 559,628 bytes 01:00:35.760
9 1:01:35.720 0:06:18.599 28,799 kbps 41,179 kbps 01:07:33.599 37,194 kbps 01:07:30.599 34,771 kbps 01:02:16.919 143,995 bytes 567,331 bytes 01:07:02.559
10 1:07:54.320 0:07:21.400 28,415 kbps 44,295 kbps 01:10:27.760 37,618 kbps 01:14:34.639 35,244 kbps 01:09:42.120 142,077 bytes 570,122 bytes 01:14:34.680
11 1:15:15.720 0:08:18.799 29,160 kbps 41,782 kbps 01:16:30.800 37,661 kbps 01:16:35.599 35,248 kbps 01:17:34.360 145,802 bytes 603,684 bytes 01:17:42.320
12 1:23:34.519 0:05:36.440 24,617 kbps 44,333 kbps 01:29:06.919 34,764 kbps 01:23:36.639 33,757 kbps 01:23:36.400 123,114 bytes 861,202 bytes 01:29:08.760

STREAM DIAGNOSTICS:

File PID Type Codec Language Seconds Bitrate Bytes Packets
---- --- ---- ----- -------- -------------- -------------- ------------- -----
00001.M2TS 4113 (0x1011) 0x1B AVC 5350.760 27,965 18,703,939,856 101,729,659
00001.M2TS 4352 (0x1100) 0x86 DTS-HD MA deu (German) 5350.760 1,818 1,215,963,792 7,436,031
00001.M2TS 4353 (0x1101) 0x86 DTS-HD MA eng (English) 5350.760 1,844 1,233,344,112 7,531,988
00001.M2TS 4608 (0x1200) 0x90 PGS deu (German) 5350.760 43 28,433,759 160,453
00001.M2TS 4609 (0x1201) 0x90 PGS eng (English) 5350.760 43 28,690,514 164,889


Anhänge:

CATGIRL

49352 Beiträge

Avatar CATGIRL

Geschrieben: 13 Sep 2014 13:50

Hallo Polyband Großes Lächeln

Ich bin ein großer Fan von Herman Wouk Romanreihe "Der Feuersturm/ Der Krieg/ Weltsturm" die die Geschichte der US Familie Henry während des 2.Weltkriegs schildert.Und von Robert Mitchum großartig gespielt wurde.

Leider erschien von euch auf deutsch nur Teil 1 als DVD ,meine Frage wie stehts mal mit einer Veröffentlichung auf BD ???? Wenn man sich mal die Kommentare bei Amazon durchliest ,warten viele Filmfans sehnsüchtig darauf.

Hier mal ein Abbild der DVD .



Dankeschön anbeten

Gruß Lindy
The First Lady of Amaray

MikeOS

595 Beiträge

Avatar MikeOS

Geschrieben: 17 Sep 2014 17:20

Hallo Polyband,

ich habe eine Frage zur angekündigten 8. Staffel von Doctor Who: In der Datenbank hier auf BRD beginnt die Staffel mit der Folge "Deep breath", was im Prinzip ja auch korrekt ist.

Was ist mir der Weihnachtsfolge 2013 "The Time of the Doctor"? Ich hatte diese bereits als Abschluss der 7. Staffelbox erwartet. Wird diese separat veröffentlicht oder Bestandteil der 8. Staffelbox? Ohne diese Folge macht die 8. Staffel zur Fortsetzung leider wenig Sinn.

Ich komm zum Glück aus Osnabrück ...
LG Michael

polyband

26 Beiträge

Avatar polyband

Geschrieben: 18 Sep 2014 16:16

Zitat:
Zitat von CATGIRL
Hallo Polyband Großes Lächeln

Ich bin ein großer Fan von Herman Wouk Romanreihe "Der Feuersturm/ Der Krieg/ Weltsturm" die die Geschichte der US Familie Henry während des 2.Weltkriegs schildert.Und von Robert Mitchum großartig gespielt wurde.

Leider erschien von euch auf deutsch nur Teil 1 als DVD ,meine Frage wie stehts mal mit einer Veröffentlichung auf BD ???? Wenn man sich mal die Kommentare bei Amazon durchliest ,warten viele Filmfans sehnsüchtig darauf.

Hier mal ein Abbild der DVD .



Dankeschön anbeten

Das freut uns zu hören, dass du ein großer Fan dieser Reihe bist. Was eine Veröffentlichung auf Blu-ray angeht, ist momentan aber leider nichts geplant. Sollte sich das ändern, halten wir euch hier über alle Neuveröffentlichungen auf dem Laufenden. Lächeln

polyband

26 Beiträge

Avatar polyband

Geschrieben: 18 Sep 2014 16:23

Zitat:
Zitat von MikeOS
Hallo Polyband,

ich habe eine Frage zur angekündigten 8. Staffel von Doctor Who: In der Datenbank hier auf BRD beginnt die Staffel mit der Folge "Deep breath", was im Prinzip ja auch korrekt ist.

Was ist mir der Weihnachtsfolge 2013 "The Time of the Doctor"? Ich hatte diese bereits als Abschluss der 7. Staffelbox erwartet. Wird diese separat veröffentlicht oder Bestandteil der 8. Staffelbox? Ohne diese Folge macht die 8. Staffel zur Fortsetzung leider wenig Sinn.

Hallo MikeOS,
da haben wir gute Nachrichten: das Weihnachtsspecial "Die Zeit des Doktors" veröffentlichen wir, es ist geplant, die Folge zusammen mit Staffel 8 auf einer Box herauszubringen.
Viele Grüße

polyband

26 Beiträge

Avatar polyband

Geschrieben: 25 Sep 2014 14:29

Auch in diesem Monat veröffentlichen wir wieder eine TV-Serie auf Blu-ray, ein besonderes Highlight für alle James Bond-Fans: "Fleming" mit Dominic Cooper in der Hauptrolle. Die Miniserie erzählt die wahre Geschichte von Ian Fleming, dem Erfinder von James Bond. Denn Flemings eigenes Leben und seine Abenteuer waren seine beste Inspiration für die Erschaffung des wohl berühmtesten Spions der Welt...

MikeOS

595 Beiträge

Avatar MikeOS

Geschrieben: 28 Okt 2014 16:57

[QUOTE=polyband;5233301]Hallo MikeOS,
da haben wir gute Nachrichten: das Weihnachtsspecial "Die Zeit des Doktors" veröffentlichen wir, es ist geplant, die Folge zusammen mit Staffel 8 auf einer Box herauszubringen.
Viele Grüße[/QUOTE]
Hallo Polyband Team,

hat sich eure Planung bzgl. der Staffel 8 und dem Weihnachtsspecial "Die Zeit des Doktors" geändert? Amazon bietet das Weihnachtsspecial nun als Einzel-BD an und die Staffel 8 ist von Eurer Homepage verschwunden.

Gibt es ein offizielles Update zur o.g. Aussage?

Danke! anbeten

Ich komm zum Glück aus Osnabrück ...
LG Michael

HcPete

1739 Beiträge

Avatar HcPete

Geschrieben: 29 Okt 2014 19:07

Ich freue mich schon auf die jeweils 2te Staffel von Orphan Black und Copper-Justice is brutal.
Die BD zu Die Musketiere wird natürlich auch gekauft,weil ich bist jetzt wirklich sehr zufrieden bin mit euren Veröffentlichungen Lächeln.

polyband

26 Beiträge

Avatar polyband

Geschrieben: 30 Okt 2014 12:29

Zitat:
Zitat von MikeOS
Hallo Polyband Team,

hat sich eure Planung bzgl. der Staffel 8 und dem Weihnachtsspecial "Die Zeit des Doktors" geändert? Amazon bietet das Weihnachtsspecial nun als Einzel-BD an und die Staffel 8 ist von Eurer Homepage verschwunden.

Gibt es ein offizielles Update zur o.g. Aussage?

Danke! anbeten

Hallo Mike,
ja, die Planung hat sich noch einmal geändert. Wir veröffentlichen das Weihnachtsspecial "Die Zeit des Doktors" nun doch noch vor Weihnachten als Einzelrelease, es wird somit doch nicht Bestandteil der 8. Staffel sein. Da sich aufgrund der Problematik mit der deutschen Fassung der Release der 8. Staffel verzögert, hoffen wir, dass sich die Fans über die Veröffentlichung von "Die Zeit des Doktors" im Dezember freuen werden.
Viele Grüße
  • 1
  • 2
  • 3
  • 4


Blu-ray ForumFilmstudio / Label - Support & HilfePolyband